<?xml version="1.0" standalone="no"?>
<!DOCTYPE svg PUBLIC "-//W3C//DTD SVG 1.1//EN" "http://www.w3.org/Graphics/SVG/1.1/DTD/svg11.dtd">
<svg xmlns="http://www.w3.org/2000/svg">
<defs >
<font id="Poppins" horiz-adv-x="855" ><font-face
    font-family="Poppins Light"
    units-per-em="1000"
    panose-1="0 0 4 0 0 0 0 0 0 0"
    ascent="1050"
    descent="-350"
    alphabetic="0" />
<glyph unicode=" " glyph-name="space" horiz-adv-x="260" />
<glyph unicode="!" glyph-name="exclam" horiz-adv-x="277" d="M242 717L139 196H83L164 717H242ZM141 90L124 0H32L48 90H141Z" />
<glyph unicode="&quot;" glyph-name="quotedbl" horiz-adv-x="270" d="M126 796L83 603H34L59 796H126ZM246 796L203 603H154L179 796H246Z" />
<glyph unicode="#" glyph-name="numbersign" horiz-adv-x="791" d="M612 454L544 281H688L676 217H519L435 0H368L452 217H229L145 0H79L163 217H5L17 281H188L256 454H102L113 518H281L367 740H433L347 518H570L656 740H723L637 518H784L773 454H612ZM545 454H322L254
281H477L545 454Z" />
<glyph unicode="$" glyph-name="dollar" horiz-adv-x="568" d="M458 582T431 615T350 656L302 387Q366 366 401 350T463 303T489 219Q489 207 485 179Q477 131 447 89T363 20T238 -7H233L219 -87H192L206 -6Q121 2 73 50T24 168L25 184H99Q96 139 125 99T216 51L265
331Q202 351 167 366T106 413T80 494Q80 505 84 533Q98 613 165 663T331 713H333L348 800H375L359 712Q447 705 491 657T534 542H459Q458 582 431 615ZM323 658H320Q256 658 213 626T159 536Q157 527 157 511Q157 465 188 440T277 395L323 658ZM413 187T413 203Q413
251 382 276T291 322L243 49H246Q314 49 357 85T411 178Q413 187 413 203Z" />
<glyph unicode="%" glyph-name="percent" horiz-adv-x="621" d="M293 714T325 683T358 601Q358 587 355 572Q343 508 297 469T189 430Q136 430 104 460T71 543Q71 557 74 572Q85 636 131 675T239 714Q293 714 325 683ZM613 706L78 0H8L543 706H613ZM123 516T143
496T197 476Q237 476 266 502T304 572Q306 586 306 592Q306 626 286 647T231 668Q186 668 155 634T123 550Q123 516 143 496ZM486 276T518 246T550 164Q550 149 547 134Q536 70 490 31T383 -9Q329 -9 297 22T264 105Q264 119 267 134Q278 198 324 237T432 276Q486
276 518 246ZM316 78T336 58T390 37Q430 37 459 64T496 134Q498 148 498 155Q498 189 478 209T424 230Q379 230 348 196T316 112Q316 78 336 58Z" />
<glyph unicode="&amp;" glyph-name="ampersand" horiz-adv-x="679" d="M536 0L394 195Q394 175 382 143Q363 77 308 35T181 -7Q102 -7 54 37T5 158Q5 180 9 200Q20 262 52 307T129 375T223 398Q243 398 261 393L245 417Q225 445 215 469T204 525Q204 541 207 559Q214
599 240 634T308 690T406 712Q486 712 523 673T560 575Q560 563 559 557Q559 531 553 507H487Q492 532 492 536Q494 545 494 562Q494 605 469 629T397 653Q346 653 313 624T273 553Q270 538 270 526Q270 502 278 483T305 438L610 0H536ZM356 207T356 216Q356 252
338 281T291 326T227 342Q170 342 127 306T72 202Q69 186 69 171Q69 116 103 85T192 54Q252 54 298 92T354 191Q356 207 356 216Z" />
<glyph unicode="&apos;" glyph-name="quotesingle" horiz-adv-x="156" d="M132 796L86 603H37L59 796H132Z" />
<glyph unicode="(" glyph-name="parenleft" horiz-adv-x="375" d="M83 596T181 746T414 989H482L481 981Q330 874 239 728T117 403Q102 322 102 248Q102 -11 277 -176L276 -183H207Q127 -110 81 -1T35 248Q35 326 49 403Q83 596 181 746Z" />
<glyph unicode=")" glyph-name="parenright" horiz-adv-x="376" d="M293 210T195 60T-38 -183H-107L-105 -176Q46 -69 137 78T259 403Q273 477 273 558Q273 818 98 981L100 989H169Q249 916 295 807T341 558Q341 480 327 403Q293 210 195 60Z" />
<glyph unicode="*" glyph-name="asterisk" horiz-adv-x="462" d="M399 667L423 603L265 546L404 490L357 426L249 518L240 360H167L211 518L67 423L41 489L198 546L61 604L111 669L221 576L232 732H305L259 576L399 667Z" />
<glyph unicode="+" glyph-name="plus" horiz-adv-x="580" d="M539 338H318L279 115H210L249 338H29L41 402H261L300 625H369L330 402H551L539 338Z" />
<glyph unicode="," glyph-name="comma" horiz-adv-x="159" d="M109 47T109 31Q109 -35 80 -76T-5 -117L1 -84Q26 -84 39 -71T57 -29L59 -21H14L27 56H108Q109 47 109 31Z" />
<glyph unicode="-" glyph-name="hyphen" horiz-adv-x="477" d="M458 400L447 341H57L68 400H458Z" />
<glyph unicode="." glyph-name="period" horiz-adv-x="154" d="M131 90L115 0H23L38 90H131Z" />
<glyph unicode="/" glyph-name="slash" horiz-adv-x="369" d="M455 940L-16 -167H-84L385 940H455Z" />
<glyph unicode="0" glyph-name="zero" horiz-adv-x="584" d="M47 277T47 214Q47 109 92 53T241 -4Q376 -4 446 90T547 356Q561 434 561 497Q561 601 516 657T367 714Q231 714 161 620T61 356Q47 277 47 214ZM461 263T437 200T368 99T252 62Q178 62 147 103T116
220Q116 280 130 356Q146 448 170 511T239 611T355 648Q429 648 460 608T491 491Q491 432 477 356Q461 263 437 200Z" />
<glyph unicode="1" glyph-name="one" horiz-adv-x="269" d="M65 640L76 705H255L131 0H58L171 640H65Z" />
<glyph unicode="2" glyph-name="two" horiz-adv-x="559" d="M192 170T318 283T462 494Q466 514 466 537Q466 591 435 623T337 655Q260 655 212 608T148 475H79Q100 593 173 654T349 715Q436 715 487 673T539 549Q539 529 534 497Q520 418 450 336T285 183T95 61H474L464
3H-16L-7 53Q192 170 318 283Z" />
<glyph unicode="3" glyph-name="three" horiz-adv-x="555" d="M448 720T496 678T544 566Q544 549 541 529Q530 467 482 424T353 373L352 367Q418 350 456 311T495 207Q495 185 491 165Q478 88 417 41T254 -7Q140 -7 80 49T23 210H92Q90 138 131 96T260 54Q329
54 371 87T423 173Q426 190 426 205Q426 270 376 304T233 338H211L221 397H243Q447 397 471 524Q474 539 474 552Q474 602 441 631T347 661Q281 661 227 624T157 513H88Q107 610 179 665T359 720Q448 720 496 678Z" />
<glyph unicode="4" glyph-name="four" horiz-adv-x="584" d="M-5 170L6 228L463 708H537L454 232H563L552 170H442L413 0H342L371 170H-5ZM455 621L81 232H387L455 621Z" />
<glyph unicode="5" glyph-name="five" horiz-adv-x="594" d="M568 649H194L148 388Q181 424 235 446T347 468Q443 468 489 417T536 284Q536 255 530 225Q512 125 443 60T261 -5Q158 -5 100 46T41 185L42 203H111Q111 133 153 95T269 57Q350 57 399 103T462 226Q466
247 466 273Q466 338 429 374T322 411Q270 411 219 387T138 321H71L140 711H579L568 649Z" />
<glyph unicode="6" glyph-name="six" horiz-adv-x="598" d="M493 662T364 662Q268 662 208 582T124 325Q149 391 213 429T355 468Q446 468 495 421T545 288Q545 258 539 225Q528 161 495 109T404 25T269 -7Q150 -7 100 53T50 220Q50 276 63 349Q95 532 168 626T375
720Q476 720 521 665T565 519H498Q493 662 364 662ZM114 226T114 203Q114 138 153 96T273 54Q350 54 404 99T473 226Q478 254 478 275Q478 342 440 377T332 412Q286 412 240 394T161 338T118 245Q114 226 114 203Z" />
<glyph unicode="7" glyph-name="seven" horiz-adv-x="472" d="M510 653L124 0H50L438 646H49L60 707H519L510 653Z" />
<glyph unicode="8" glyph-name="eight" horiz-adv-x="613" d="M114 597T149 636T242 699T375 722Q475 722 529 678T583 562Q583 545 580 527Q570 471 529 431T415 372Q477 356 510 316T544 216Q544 194 540 175Q524 83 445 31T244 -22Q140 -22 81 25T21 156Q21
179 25 199Q37 265 86 309T212 372Q156 387 129 422T101 508Q101 521 105 547Q114 597 149 636ZM170 519T170 505Q170 451 209 422T317 392Q395 392 446 425T509 520Q512 537 512 550Q512 605 473 634T365 664Q288 664 236 631T173 535Q170 519 170 505ZM91 182T91
167Q91 105 134 71T254 37Q341 37 399 76T470 185Q473 202 473 217Q473 280 428 311T308 342Q226 342 167 307T94 200Q91 182 91 167Z" />
<glyph unicode="9" glyph-name="nine" horiz-adv-x="602" d="M114 125T145 88T244 50Q342 50 404 130T491 387Q465 322 401 283T260 244Q168 244 119 291T69 426Q69 454 75 487Q86 551 120 603T212 687T348 719Q466 719 516 660T566 497Q566 445 552 363Q520 182
447 87T236 -8Q138 -8 92 48T50 194H116Q114 125 145 88ZM501 496T501 509Q501 574 462 616T342 658Q265 658 211 612T142 484Q137 456 137 436Q137 370 175 335T283 300Q329 300 374 318T453 375T497 468Q501 496 501 509Z" />
<glyph unicode=":" glyph-name="colon" horiz-adv-x="168" d="M178 528L162 438H70L85 528H178ZM100 90L85 0H-8L8 90H100Z" />
<glyph unicode=";" glyph-name="semicolon" horiz-adv-x="213" d="M211 527L195 437H103L118 527H211ZM112 47T112 31Q112 -35 83 -76T-2 -117L4 -84Q29 -84 42 -71T60 -29L62 -21H17L30 56H111Q112 47 112 31Z" />
<glyph unicode="&lt;" glyph-name="less" horiz-adv-x="410" d="M246 139L35 370L328 603H416L123 370L334 139H246Z" />
<glyph unicode="=" glyph-name="equal" horiz-adv-x="580" d="M568 504L557 440H47L58 504H568ZM532 301L521 237H12L23 301H532Z" />
<glyph unicode="&gt;" glyph-name="greater" horiz-adv-x="410" d="M76 603H164L375 370L82 139H-6L287 370L76 603Z" />
<glyph unicode="?" glyph-name="question" horiz-adv-x="496" d="M395 727T444 683T494 559Q494 535 490 514Q472 410 395 362T203 312L180 186H113L144 361H177Q271 361 338 393T420 513Q424 539 424 550Q424 606 390 637T296 668Q227 668 184 631T124 529H56Q77
621 142 674T309 727Q395 727 444 683ZM177 90L161 0H69L85 90H177Z" />
<glyph unicode="@" glyph-name="at" horiz-adv-x="1106" d="M819 780T907 738T1040 617T1085 433Q1085 386 1076 333Q1059 236 1014 158T907 34T784 -11Q686 -11 686 69Q686 92 697 128Q597 -11 452 -11Q370 -11 323 39T275 176Q275 206 283 246Q301 335 352 406T476
517T627 557Q722 557 772 508T822 379Q822 331 804 278L755 134Q747 111 747 92Q747 70 760 61T799 51Q841 51 882 84T956 182T1004 331Q1012 374 1012 423Q1012 562 927 641T671 721Q524 721 406 657T212 481T112 232Q103 177 103 128Q103 -29 199 -109T474 -192L452
-251Q251 -248 141 -155T31 116Q31 168 42 232Q69 384 159 509T386 707T689 780Q819 780 907 738ZM541 51T595 82T689 172T744 307Q750 337 750 363Q750 424 715 459T605 494Q545 494 492 463T402 375T351 247Q346 225 346 196Q346 130 382 91T483 51Q541 51 595
82Z" />
<glyph unicode="A" glyph-name="A" horiz-adv-x="644" d="M452 172H132L38 0H-38L344 689H423L561 0H485L452 172ZM442 228L370 608L162 228H442Z" />
<glyph unicode="B" glyph-name="B" horiz-adv-x="591" d="M551 461T507 420T402 365Q457 354 489 316T522 223Q522 207 519 190Q504 105 437 53T259 0H14L138 705H380Q473 705 519 668T566 566Q566 550 563 530Q551 461 507 420ZM492 534T492 547Q492 594 459
620T357 646H199L153 390H316Q389 390 433 424T489 519Q492 534 492 547ZM451 213T451 226Q451 278 413 307T305 337H144L95 60H257Q336 60 386 96T448 198Q451 213 451 226Z" />
<glyph unicode="C" glyph-name="C" horiz-adv-x="765" d="M576 712T648 651T735 481H661Q647 557 590 602T437 647Q364 647 298 611T187 508T125 352Q119 316 119 284Q119 179 177 119T333 58Q429 58 502 103T616 224H690Q637 116 544 55T323 -7Q238 -7 176 28T80
126T46 274Q46 314 53 352Q71 457 127 539T268 666T449 712Q576 712 648 651Z" />
<glyph unicode="D" glyph-name="D" horiz-adv-x="712" d="M641 244T584 165T436 43T227 0H14L138 705H351Q505 705 586 634T667 435Q667 394 660 353Q641 244 584 165ZM382 63T473 139T589 353Q595 389 595 422Q595 528 530 585T335 643H198L96 63H233Q382 63 473 139Z" />
<glyph unicode="E" glyph-name="E" horiz-adv-x="498" d="M199 648L152 382H428L417 327H142L95 58H400L390 0H14L138 705H514L504 648H199Z" />
<glyph unicode="F" glyph-name="F" horiz-adv-x="496" d="M521 705L511 648H199L152 379H422L412 324H142L85 0H14L138 705H521Z" />
<glyph unicode="G" glyph-name="G" horiz-adv-x="782" d="M576 711T648 651T735 488H662Q647 559 591 603T446 647Q370 647 303 611T188 508T125 352Q119 316 119 283Q119 176 181 116T348 55Q419 55 484 86T596 178T663 319H370L379 372H733L722 310Q700 218
645 146T509 34T332 -7Q245 -7 180 28T81 127T46 276Q46 317 53 355Q71 458 128 539T271 665T457 711Q576 711 648 651Z" />
<glyph unicode="H" glyph-name="H" horiz-adv-x="676" d="M661 705L537 0H467L526 334H144L85 0H14L138 705H209L154 392H536L591 705H661Z" />
<glyph unicode="I" glyph-name="I" horiz-adv-x="223" d="M209 705L85 0H14L138 705H209Z" />
<glyph unicode="J" glyph-name="J" horiz-adv-x="467" d="M459 705L364 170Q349 90 294 42T155 -7Q77 -7 35 33T-7 147Q-7 168 -2 198H68Q64 179 64 157Q64 111 88 84T163 57Q222 57 253 89T294 170L388 705H459Z" />
<glyph unicode="K" glyph-name="K" horiz-adv-x="559" d="M210 354L480 0H393L143 331L85 0H14L138 705H209L151 375L517 705H604L210 354Z" />
<glyph unicode="L" glyph-name="L" horiz-adv-x="423" d="M94 56H350L341 0H14L138 705H209L94 56Z" />
<glyph unicode="M" glyph-name="M" horiz-adv-x="836" d="M820 690L699 0H629L730 578L389 0H327L188 576L86 0H16L137 690H220L374 87L737 690H820Z" />
<glyph unicode="N" glyph-name="N" horiz-adv-x="680" d="M542 0H471L189 589L85 0H14L138 704H209L492 114L595 704H666L542 0Z" />
<glyph unicode="O" glyph-name="O" horiz-adv-x="787" d="M539 713T604 677T705 575T741 422Q741 381 734 343Q716 241 660 161T520 37T338 -8Q248 -8 182 28T81 130T46 283Q46 324 53 363Q71 465 127 544T267 668T450 713Q539 713 604 677ZM367 648T300 613T186
511T123 355Q117 319 117 288Q117 181 179 120T344 58Q421 58 488 93T602 195T665 350Q671 386 671 417Q671 524 609 586T443 648Q367 648 300 613Z" />
<glyph unicode="P" glyph-name="P" horiz-adv-x="558" d="M137 294L85 0H14L138 705H349Q453 705 503 664T554 547Q554 527 549 499Q532 401 462 348T277 294H137ZM453 354T478 499Q482 525 482 537Q482 646 333 646H199L147 354H282Q453 354 478 499Z" />
<glyph unicode="Q" glyph-name="Q" horiz-adv-x="787" d="M716 237T656 155T508 30L667 -141H575L444 6Q393 -8 339 -8Q249 -8 183 28T82 130T47 283Q47 324 54 363Q72 465 128 544T268 668T451 713Q540 713 605 677T706 575T742 422Q742 381 735 343Q716 237
656 155ZM422 58T489 93T603 195T666 350Q672 386 672 417Q672 524 610 586T444 648Q368 648 301 613T187 511T124 355Q118 319 118 288Q118 181 180 120T345 58Q422 58 489 93Z" />
<glyph unicode="R" glyph-name="R" horiz-adv-x="569" d="M457 705T507 662T558 544Q558 519 554 498Q538 410 479 358T324 296L472 0H392L250 294H136L85 0H14L138 705H354Q457 705 507 662ZM486 522T486 532Q486 644 339 644H199L146 347H286Q457 347 482 494Q486
522 486 532Z" />
<glyph unicode="S" glyph-name="S" horiz-adv-x="557" d="M468 120T440 81T362 18T245 -7Q174 -7 124 19T49 89T25 184H99Q97 153 111 122T160 71T248 50Q311 50 351 84T401 170Q404 187 404 201Q404 242 384 268T333 308T251 342Q194 363 161 380T104 430T80
513Q80 537 84 558Q96 627 157 670T311 713Q380 713 427 689T498 626T524 542H449Q447 587 413 622T308 657Q241 657 199 622T156 522Q156 484 175 460T224 421T303 388Q360 368 395 350T454 299T479 211Q479 187 475 164Q468 120 440 81Z" />
<glyph unicode="T" glyph-name="T" horiz-adv-x="507" d="M551 705L541 648H340L226 0H156L270 648H70L80 705H551Z" />
<glyph unicode="U" glyph-name="U" horiz-adv-x="652" d="M205 705L130 278Q123 243 123 209Q123 132 163 96T276 59Q361 59 419 112T498 278L573 705H643L568 278Q542 135 461 64T263 -7Q164 -7 108 44T52 199Q52 237 59 278L135 705H205Z" />
<glyph unicode="V" glyph-name="V" horiz-adv-x="655" d="M162 705L279 82L618 705H695L309 0H222L85 705H162Z" />
<glyph unicode="W" glyph-name="W" horiz-adv-x="953" d="M981 705L675 0H591L521 604L238 0H154L96 705H174L212 87L499 705H578L648 86L904 705H981Z" />
<glyph unicode="X" glyph-name="X" horiz-adv-x="566" d="M325 353L482 0H399L267 297L44 0H-37L239 359L85 705H168L298 414L520 705H601L325 353Z" />
<glyph unicode="Y" glyph-name="Y" horiz-adv-x="571" d="M611 705L308 275L260 0H189L237 275L85 705H166L285 349L530 705H611Z" />
<glyph unicode="Z" glyph-name="Z" horiz-adv-x="523" d="M65 59H432L422 0H-23L-14 56L450 646H101L111 705H539L529 648L65 59Z" />
<glyph unicode="[" glyph-name="bracketleft" horiz-adv-x="298" d="M351 940L341 882H242L67 -108H166L156 -166H-10L185 940H351Z" />
<glyph unicode="\" glyph-name="backslash" horiz-adv-x="575" d="M301 -167L170 940H240L369 -167H301Z" />
<glyph unicode="]" glyph-name="bracketright" horiz-adv-x="297" d="M-54 -166L-44 -108H56L230 882H131L141 940H307L112 -166H-54Z" />
<glyph unicode="^" glyph-name="asciicircum" horiz-adv-x="604" d="M61 171H-10L316 690H380L522 171H452L334 605L61 171Z" />
<glyph unicode="_" glyph-name="underscore" horiz-adv-x="583" d="M542 -33L530 -101H21L34 -33H542Z" />
<glyph unicode="`" glyph-name="grave" horiz-adv-x="281" d="M291 642L281 590L98 711L109 770L291 642Z" />
<glyph unicode="a" glyph-name="a" horiz-adv-x="674" d="M438 553T489 510T550 396L577 546H646L549 0H480L507 150Q473 79 407 36T257 -7Q159 -7 102 50T45 209Q45 242 51 278Q66 362 109 424T215 520T353 553Q438 553 489 510ZM271 491T206 433T122 273Q117
241 117 220Q117 142 162 99T286 55Q344 55 395 82T482 158T528 273Q533 301 533 323Q533 401 487 446T364 491Q271 491 206 433Z" />
<glyph unicode="b" glyph-name="b" horiz-adv-x="674" d="M15 0L146 740H216L155 396Q189 467 255 510T405 553Q503 553 560 496T617 338Q617 308 611 273Q596 188 552 125T444 27T306 -7Q222 -7 172 36T112 150L85 0H15ZM390 55T456 113T539 273Q544 305 544
326Q544 404 500 447T375 491Q317 491 266 464T179 388T133 273Q128 245 128 224Q128 146 174 101T298 55Q390 55 456 113Z" />
<glyph unicode="c" glyph-name="c" horiz-adv-x="625" d="M470 553T529 498T588 352H514Q514 417 471 454T355 492Q302 492 254 468T171 395T122 273Q117 248 117 218Q117 137 162 96T278 54Q351 54 407 91T486 194H560Q528 103 450 48T268 -7Q166 -7 106 51T45
212Q45 244 51 278Q66 363 110 425T221 520T365 553Q470 553 529 498Z" />
<glyph unicode="d" glyph-name="d" horiz-adv-x="672" d="M667 740L536 0H467L493 150Q460 79 394 36T244 -7Q147 -7 90 51T32 210Q32 242 38 278Q53 362 96 424T202 520T340 553Q425 553 476 510T537 396L598 740H667ZM258 491T193 433T109 273Q104 241 104 220Q104
142 149 99T273 55Q331 55 382 82T469 158T515 273Q519 296 519 322Q519 400 474 445T351 491Q258 491 193 433Z" />
<glyph unicode="e" glyph-name="e" horiz-adv-x="625" d="M437 553T486 527T560 455T585 354Q585 329 581 308Q576 279 567 257H116Q112 225 112 212Q112 132 158 92T275 51Q348 51 404 88T483 188H557Q526 101 449 47T267 -7Q165 -7 105 51T44 211Q44 242 50
276Q65 361 110 424T222 520T366 553Q437 553 486 527ZM516 322T516 350Q516 422 471 459T356 496Q274 496 209 445T123 293H509Q516 322 516 350Z" />
<glyph unicode="f" glyph-name="f" horiz-adv-x="335" d="M149 665T207 711T372 753L362 691Q286 692 251 664T203 568L199 546H336L325 484H188L103 0H32L117 484H36L47 546H128L133 573Q149 665 207 711Z" />
<glyph unicode="g" glyph-name="g" horiz-adv-x="673" d="M162 -8T105 50T47 209Q47 242 53 278Q68 362 111 424T218 520T356 554Q441 554 492 511T552 396L579 546H648L549 -13Q536 -89 494 -146T390 -235T256 -267Q149 -267 90 -216T22 -76H91Q100 -137 142
-171T261 -206Q313 -206 359 -184T438 -117T480 -13L510 150Q475 79 409 36T260 -8Q162 -8 105 50ZM273 492T208 434T124 273Q119 243 119 221Q119 143 164 100T289 56Q347 56 398 83T485 159T531 273Q535 296 535 321Q535 399 489 445T366 492Q273 492 208 434Z"
/>
<glyph unicode="h" glyph-name="h" horiz-adv-x="635" d="M482 556T530 512T579 381Q579 353 573 318L517 0H448L503 313Q507 336 507 361Q507 427 470 462T367 497Q291 497 235 451T156 316L101 0H30L160 740H231L174 414Q207 483 268 519T401 556Q482 556 530 512Z" />
<glyph unicode="i" glyph-name="i" horiz-adv-x="223" d="M135 724T153 740T196 756Q216 756 227 746T239 718Q239 694 222 678T179 661Q159 661 147 671T135 699Q135 724 153 740ZM194 546L97 0H26L123 546H194Z" />
<glyph unicode="j" glyph-name="j" horiz-adv-x="230" d="M165 661T153 671T141 700Q141 725 159 740T203 756Q223 756 234 746T246 718Q246 694 228 678T185 661Q165 661 153 671ZM-112 -196H-74Q-36 -196 -16 -179T12 -120L130 546H200L82 -124Q58 -258 -78
-258H-123L-112 -196Z" />
<glyph unicode="k" glyph-name="k" horiz-adv-x="465" d="M187 278L394 0H307L130 251L86 0H15L145 740H216L140 308L399 546H486L187 278Z" />
<glyph unicode="l" glyph-name="l" horiz-adv-x="222" d="M231 740L101 0H30L160 740H231Z" />
<glyph unicode="m" glyph-name="m" horiz-adv-x="1021" d="M869 556T916 512T963 381Q963 353 957 318L901 0H831L886 313Q891 343 891 364Q891 427 856 461T759 495Q680 495 624 443T551 290L499 0H430L485 313Q490 343 490 362Q490 427 455 461T357 495Q279
495 223 443T149 290L98 0H27L124 546H194L171 413Q203 483 262 519T390 556Q462 556 507 518T560 407Q595 479 657 517T789 556Q869 556 916 512Z" />
<glyph unicode="n" glyph-name="n" horiz-adv-x="635" d="M480 556T528 511T577 379Q577 351 571 318L514 0H445L500 313Q505 341 505 362Q505 428 468 462T364 497Q282 497 225 445T149 290L98 0H27L124 546H194L170 412Q203 482 265 519T398 556Q480 556 528 511Z" />
<glyph unicode="o" glyph-name="o" horiz-adv-x="645" d="M475 553T538 494T601 331Q601 301 595 268Q580 184 534 122T421 26T276 -7Q171 -7 108 52T44 216Q44 245 50 278Q65 362 111 424T226 520T371 553Q475 553 538 494ZM308 492T258 468T172 395T122 273Q117
241 117 220Q117 139 164 97T284 55Q338 55 387 79T473 152T523 273Q528 305 528 326Q528 407 481 449T362 492Q308 492 258 468Z" />
<glyph unicode="p" glyph-name="p" horiz-adv-x="674" d="M517 553T574 496T631 338Q631 308 625 273Q609 188 565 125T458 27T320 -7Q236 -7 185 36T126 150L53 -258H-17L125 546H195L169 396Q203 467 269 510T419 553Q517 553 574 496ZM404 55T469 113T553 273Q558
305 558 326Q558 404 513 447T389 491Q330 491 279 464T193 388T147 273Q142 245 142 224Q142 146 188 101T312 55Q404 55 469 113Z" />
<glyph unicode="q" glyph-name="q" horiz-adv-x="672" d="M639 546L498 -258H428L500 146Q464 76 400 35T255 -7Q154 -7 97 51T39 210Q39 241 45 277Q60 362 104 424T212 519T351 552Q433 552 483 512T545 403L570 546H639ZM265 491T200 433T116 272Q111 240 111
219Q111 141 156 98T280 55Q337 55 388 81T474 157T522 273Q526 296 526 322Q526 400 480 445T357 491Q265 491 200 433Z" />
<glyph unicode="r" glyph-name="r" horiz-adv-x="370" d="M209 492T267 524T402 556L389 480H366Q286 480 227 438T151 299V300L98 0H27L124 546H194L174 433Q209 492 267 524Z" />
<glyph unicode="s" glyph-name="s" horiz-adv-x="492" d="M361 553T413 506T464 379H394Q396 432 361 466T254 501Q199 501 166 474T132 401Q132 372 149 354T192 325T264 301Q318 286 351 272T407 229T430 155Q430 144 426 118Q416 62 367 28T240 -7Q139 -7 81
39T24 167H93Q89 113 128 79T247 45Q294 45 324 67T361 124Q363 140 363 146Q363 178 345 198T300 230T226 255Q174 270 143 283T90 323T68 392Q68 407 71 425Q81 483 131 518T261 553Q361 553 413 506Z" />
<glyph unicode="t" glyph-name="t" horiz-adv-x="363" d="M141 163Q137 143 137 125Q137 90 156 76T219 62H275L263 0H198Q131 0 99 26T66 112Q66 132 71 164L128 485H44L55 546H139L163 684H233L209 546H359L349 485H198L141 163Z" />
<glyph unicode="u" glyph-name="u" horiz-adv-x="621" d="M594 546L497 0H427L451 136Q418 65 357 28T223 -10Q142 -10 94 35T45 166Q45 195 51 228L107 546H177L121 234Q117 211 117 186Q117 119 154 84T257 49Q339 49 396 101T472 256V253L524 546H594Z" />
<glyph unicode="v" glyph-name="v" horiz-adv-x="547" d="M236 79L502 546H578L261 0H181L58 546H134L236 79Z" />
<glyph unicode="w" glyph-name="w" horiz-adv-x="823" d="M857 546L599 0H526L443 465L196 0H122L58 546H130L176 73L423 546H495L577 73L790 546H857Z" />
<glyph unicode="x" glyph-name="x" horiz-adv-x="474" d="M277 273L411 0H331L221 224L42 0H-36L192 281L62 546H142L249 329L424 546H502L277 273Z" />
<glyph unicode="y" glyph-name="y" horiz-adv-x="544" d="M129 546L239 91L495 546H573L109 -258H30L187 6L51 546H129Z" />
<glyph unicode="z" glyph-name="z" horiz-adv-x="435" d="M67 60H370L359 0H-21L-10 57L355 487H73L84 546H446L435 489L67 60Z" />
<glyph unicode="{" glyph-name="braceleft" horiz-adv-x="348" d="M148 361T171 330T194 253Q194 235 191 217Q184 179 165 131Q152 96 145 71T131 14Q127 -9 127 -35Q127 -97 152 -142T215 -210L213 -217H141Q112 -200 84 -154T56 -38Q56 -6 61 19Q67 57 79 91T94
132Q115 182 121 218Q124 233 124 252Q124 331 36 354L42 390Q111 407 139 443T175 526Q180 552 180 589L179 649Q179 691 185 725Q197 791 228 840T291 919T349 961H421L420 954Q367 927 319 869T257 730Q250 690 250 644L251 587Q251 556 246 528Q236 469 200
428T101 373V371Q148 361 171 330Z" />
<glyph unicode="|" glyph-name="bar" horiz-adv-x="208" d="M61 -101H-10L147 791H218L61 -101Z" />
<glyph unicode="}" glyph-name="braceright" horiz-adv-x="350" d="M207 384T184 415T161 490Q161 507 164 523Q171 561 190 609Q215 675 224 725Q228 748 228 774Q228 837 203 884T142 954L143 961H215Q244 944 272 898T300 782Q300 750 295 725Q289 687 277
653T262 612Q241 562 235 526Q232 511 232 492Q232 412 320 390L314 354Q246 339 218 302T181 218Q176 192 176 155L177 95Q177 53 171 19Q159 -47 128 -96T65 -175T7 -217H-65L-64 -210Q-12 -184 37 -122T100 19Q107 59 107 105L106 163Q106 196 111 222Q121 278
157 318T255 371V373Q207 384 184 415Z" />
<glyph unicode="~" glyph-name="asciitilde" horiz-adv-x="487" d="M198 387T217 378T262 350Q283 335 298 328T331 320Q357 320 377 338T407 387H464Q442 323 403 289T314 255Q289 255 270 264T226 291Q204 307 190 314T156 322Q131 322 111 304T79 255H23Q45
319 83 353T172 387Q198 387 217 378Z" />
<glyph unicode="&#xa0;" glyph-name="uni00A0" horiz-adv-x="260" />
<glyph unicode="&#xa1;" glyph-name="exclamdown" horiz-adv-x="284" d="M24 -160L133 361H192L106 -160H24ZM131 467L149 557H246L229 467H131Z" />
<glyph unicode="&#xa2;" glyph-name="cent" horiz-adv-x="586" d="M257 459T196 409T119 266Q115 245 115 220Q115 148 157 111T267 73Q333 73 386 110T461 211H527Q500 125 431 72T269 15L251 -91H213L232 16Q145 23 96 73T46 210Q46 233 51 266Q70 376 143 441T319
515L337 615H375L357 516Q448 512 499 460T546 321H481Q481 385 441 422T335 459Q257 459 196 409Z" />
<glyph unicode="&#xa3;" glyph-name="sterling" horiz-adv-x="570" d="M474 726T522 676T570 546Q570 531 569 524H503Q508 587 474 627T376 668Q317 668 271 631T211 524Q207 503 207 478Q207 444 214 408T222 364H408L399 315H229Q232 296 232 274Q232 252 228
232Q219 184 192 141T117 56H483L472 -2H40L38 39Q92 89 121 130T161 229Q164 247 164 265Q164 281 160 315H42L51 364H152Q140 419 140 468Q140 503 145 530Q159 618 224 672T384 726Q474 726 522 676Z" />
<glyph unicode="&#xa4;" glyph-name="currency" horiz-adv-x="527" d="M416 492Q437 456 437 413Q437 396 434 378Q422 311 378 265L426 207L390 177L342 235Q292 202 232 202Q170 202 133 236L64 177L39 207L109 265Q90 298 90 340Q90 352 94 378Q106 444 150
490L99 550L135 580L185 520Q234 552 294 552Q353 552 391 520L461 580L486 550L416 492ZM379 394T379 408Q379 454 353 480T286 507Q237 507 200 472T151 377Q148 361 148 346Q148 299 173 273T241 247Q287 247 326 282T376 377Q379 394 379 408Z" />
<glyph unicode="&#xa5;" glyph-name="yen" horiz-adv-x="605" d="M396 373H544L535 323H361L327 275L321 240H520L511 189H312L278 0H208L241 189H41L50 240H250L256 275L239 323H65L73 373H221L103 705H185L303 341L549 705H629L396 373Z" />
<glyph unicode="&#xa6;" glyph-name="brokenbar" horiz-adv-x="251" d="M169 791H239L174 421H103L169 791ZM82 -101H12L77 271H148L82 -101Z" />
<glyph unicode="&#xa7;" glyph-name="section" horiz-adv-x="573" d="M468 564L469 577Q469 624 436 656T333 689Q281 689 246 668T203 605Q201 593 201 587Q201 549 235 522T346 471Q433 445 479 411T526 315Q526 272 504 233T438 165T332 125Q444 80 444 -6Q444
-78 388 -123T231 -169Q135 -169 83 -122T35 8H105Q102 -47 134 -82T241 -117Q300 -117 336 -91T372 -13Q372 25 339 50T227 101Q140 127 94 161T47 257Q47 300 70 340T137 410T245 447Q130 494 130 579Q130 587 132 603Q143 665 197 703T343 741Q439 741 490 694T538
564H468ZM451 355T414 382T307 410Q251 410 210 390T146 336T123 264Q123 217 160 190T267 162Q323 162 365 182T429 237T451 308Q451 355 414 382Z" />
<glyph unicode="&#xa8;" glyph-name="dieresis" horiz-adv-x="344" d="M113 688T127 700T161 713Q180 713 190 701T198 669Q194 651 179 638T146 625Q130 625 120 635T109 660Q109 666 110 669Q113 688 127 700ZM270 688T284 700T318 713Q336 713 346 701T354
669Q350 651 336 638T303 625Q287 625 277 635T266 660Q266 666 267 669Q270 688 284 700Z" />
<glyph unicode="&#xa9;" glyph-name="copyright" horiz-adv-x="795" d="M358 707T272 662T128 537T53 354Q46 318 46 279Q46 196 81 133T182 35T336 0Q438 0 524 45T668 170T743 354Q750 400 750 428Q750 511 715 574T615 672T461 707Q358 707 272 662ZM538 677T596
646T686 557T717 425Q717 398 710 354Q694 260 643 187T513 72T341 30Q259 30 200 61T110 150T79 283Q79 318 85 354Q102 447 153 520T283 635T456 677Q538 677 596 646ZM517 587T566 545T620 426H558Q551 479 516 507T431 536Q389 536 350 515T282 453T242 353Q238
332 238 308Q238 242 274 207T367 171Q417 171 461 199T532 281H594Q562 205 498 163T360 120Q280 120 230 167T179 300Q179 322 184 354Q197 427 235 480T328 560T443 587Q517 587 566 545Z" />
<glyph unicode="&#xaa;" glyph-name="ordfeminine" horiz-adv-x="440" d="M283 710T314 685T353 615L369 704H425L363 354H307L322 443Q300 398 260 373T166 348Q103 348 67 385T31 487Q31 509 35 529Q50 611 103 660T230 710Q283 710 314 685ZM184 664T144 627T92
528Q89 512 89 496Q89 449 116 422T188 394Q244 394 285 430T338 529Q341 546 341 559Q341 608 313 636T236 664Q184 664 144 627Z" />
<glyph unicode="&#xab;" glyph-name="guillemotleft" horiz-adv-x="435" d="M114 120L45 295L176 470H246L114 295L184 120H114ZM286 120L218 295L348 470H419L286 295L357 120H286Z" />
<glyph unicode="&#xac;" glyph-name="logicalnot" horiz-adv-x="730" d="M697 430L662 230H593L618 374H57L67 430H697Z" />
<glyph unicode="&#xad;" glyph-name="uni00AD" horiz-adv-x="477" d="M458 400L447 341H57L68 400H458Z" />
<glyph unicode="&#xae;" glyph-name="registered" horiz-adv-x="795" d="M550 707T615 674T715 578T750 432Q750 392 743 354Q725 251 667 171T523 45T336 -1Q248 -1 183 34T82 132T46 279Q46 318 53 354Q72 459 129 539T273 663T461 707Q550 707 615 674ZM717
390T717 429Q717 545 648 611T456 678Q361 678 283 638T153 525T85 354Q79 317 79 284Q79 169 148 103T342 36Q437 36 514 75T643 187T710 354Q717 390 717 429ZM527 591T560 564T593 491Q593 484 591 466Q581 411 542 378T438 340L535 143H480L386 339H311L277
143H228L306 591H459Q527 591 560 564ZM542 477T542 483Q542 515 520 531T447 547H347L317 374H417Q525 374 540 461Q542 477 542 483Z" />
<glyph unicode="&#xaf;" glyph-name="overscore" horiz-adv-x="405" d="M437 700L427 650H88L97 700H437Z" />
<glyph unicode="&#xb0;" glyph-name="degree" horiz-adv-x="391" d="M292 697T329 661T367 563Q367 542 363 523Q349 443 296 395T166 347Q100 347 63 384T25 485Q25 504 28 523Q42 602 96 649T226 697Q292 697 329 661ZM169 655T133 620T86 522Q83 504 83 487Q83
441 107 416T174 390Q223 390 259 425T306 522Q309 542 309 558Q309 605 285 630T219 655Q169 655 133 620Z" />
<glyph unicode="&#xb1;" glyph-name="plusminus" horiz-adv-x="580" d="M561 443L550 379H329L290 160H222L261 379H41L52 443H272L306 634H374L340 443H561ZM1 156H510L499 92H-10L1 156Z" />
<glyph unicode="&#xb2;" glyph-name="twosuperior" horiz-adv-x="331" d="M294 568T263 535T174 464L78 397H271L263 352H11L17 390L154 492Q192 521 214 547T243 606Q244 611 244 620Q244 644 230 656T193 668Q161 668 139 649T106 591H51Q64 643 104 676T205
710Q252 710 277 689T303 631Q303 624 301 610Q294 568 263 535Z" />
<glyph unicode="&#xb3;" glyph-name="threesuperior" horiz-adv-x="327" d="M249 710T277 688T306 628Q306 617 305 611Q299 580 278 559T221 530V527Q279 511 279 461Q279 456 277 442Q271 402 233 375T135 348Q72 348 45 374T20 454H78Q75 418 91 404T139 389Q177
389 199 409T221 464Q221 488 204 501T156 514H102L107 541H160Q193 541 216 558T245 605Q246 609 246 617Q246 640 231 653T188 667Q126 667 104 609H50Q63 653 101 681T201 710Q249 710 277 688Z" />
<glyph unicode="&#xb4;" glyph-name="acute" horiz-adv-x="270" d="M303 711L76 590L86 642L314 770L303 711Z" />
<glyph unicode="&#xb5;" glyph-name="uni00B5" horiz-adv-x="640" d="M628 546L532 0H461L484 131Q452 62 395 26T269 -10Q219 -10 181 12T129 85L69 -258H-1L141 546H211L161 264Q155 231 155 203Q155 128 194 90T301 52Q378 52 433 104T506 256V253L558 546H628Z" />
<glyph unicode="&#xb6;" glyph-name="paragraph" horiz-adv-x="561" d="M418 0H359L471 635H375L264 0H205L255 289H247Q145 289 94 332T42 448Q42 461 46 489Q62 579 132 634T317 690H539L418 0Z" />
<glyph unicode="&#xb7;" glyph-name="middot" horiz-adv-x="161" d="M164 390L148 300H56L71 390H164Z" />
<glyph unicode="&#xb8;" glyph-name="cedilla" horiz-adv-x="273" d="M173 -71T204 -90T235 -150Q235 -204 198 -231T101 -258H9L17 -215H100Q183 -215 183 -156Q183 -136 167 -124T118 -112H69L90 7H137L122 -74Q173 -71 204 -90Z" />
<glyph unicode="&#xb9;" glyph-name="onesuperior" horiz-adv-x="187" d="M58 659L66 704H179L117 352H61L115 659H58Z" />
<glyph unicode="&#xba;" glyph-name="ordmasculine" horiz-adv-x="422" d="M315 709T355 670T396 565Q396 547 393 527Q379 446 320 395T182 344Q114 344 73 384T32 489Q32 508 35 527Q49 607 108 658T246 709Q315 709 355 670ZM185 663T145 627T92 527Q89 509
89 494Q89 445 117 418T190 391Q243 391 283 427T336 527Q339 545 339 561Q339 610 312 636T238 663Q185 663 145 627Z" />
<glyph unicode="&#xbb;" glyph-name="guillemotright" horiz-adv-x="435" d="M153 295L81 470H153L220 295L91 120H19L153 295ZM325 295L254 470H325L393 295L263 120H192L325 295Z" />
<glyph unicode="&#xbc;" glyph-name="onequarter" horiz-adv-x="624" d="M572 705L90 0H21L503 705H572ZM85 659L93 704H206L144 352H88L142 659H85ZM538 72H488L476 0H420L432 72H252L259 106L471 354H539L495 109H545L538 72ZM474 294L316 110H442L474 294Z" />
<glyph unicode="&#xbd;" glyph-name="onehalf" horiz-adv-x="677" d="M571 706L87 0H17L502 706H571ZM159 659H102L110 704H223L161 352H105L159 659ZM605 215T574 182T485 111L389 44H582L574 -1H322L328 37L465 139Q503 168 525 194T554 253Q555 258 555 267Q555
291 541 303T504 315Q472 315 450 296T417 238H362Q375 290 415 323T516 357Q563 357 588 336T614 278Q614 271 612 257Q605 215 574 182Z" />
<glyph unicode="&#xbe;" glyph-name="threequarters" horiz-adv-x="655" d="M271 710T299 688T328 628Q328 617 327 611Q321 580 300 559T243 530V527Q301 511 301 461Q301 456 299 442Q293 402 255 375T157 348Q94 348 67 374T42 454H100Q97 418 113 404T161
389Q199 389 221 409T243 464Q243 488 226 501T178 514H124L129 541H182Q215 541 238 558T267 605Q268 609 268 617Q268 640 253 653T210 667Q148 667 126 609H72Q85 653 123 681T223 710Q271 710 299 688ZM630 706L152 0H83L561 706H630ZM586 72H536L524 0H468L480
72H300L306 106L513 354H586L543 109H593L586 72ZM523 299L364 109H490L523 299Z" />
<glyph unicode="&#xbf;" glyph-name="questiondown" horiz-adv-x="481" d="M95 -181T46 -137T-4 -13Q-4 11 0 32Q18 136 95 184T287 234L310 360H377L346 185H313Q219 185 152 153T70 33Q66 7 66 -4Q66 -60 100 -91T194 -122Q263 -122 306 -85T366 17H434Q413
-75 348 -128T181 -181Q95 -181 46 -137ZM313 456L329 546H421L405 456H313Z" />
<glyph unicode="&#xc0;" glyph-name="Agrave" horiz-adv-x="644" d="M452 172H132L38 0H-38L344 689H423L561 0H485L452 172ZM442 228L370 608L162 228H442ZM432 801L422 749L239 870L250 929L432 801Z" />
<glyph unicode="&#xc1;" glyph-name="Aacute" horiz-adv-x="644" d="M452 172H132L38 0H-38L344 689H423L561 0H485L452 172ZM442 228L370 608L162 228H442ZM586 870L359 749L369 801L597 929L586 870Z" />
<glyph unicode="&#xc2;" glyph-name="Acircumflex" horiz-adv-x="644" d="M455 172H135L41 0H-35L347 689H426L564 0H488L455 172ZM445 228L373 608L165 228H445ZM416 855L267 772L276 823L425 905L544 823L535 772L416 855Z" />
<glyph unicode="&#xc3;" glyph-name="Atilde" horiz-adv-x="644" d="M459 172H139L45 0H-31L351 689H430L568 0H492L459 172ZM449 228L377 608L169 228H449ZM386 859T398 853T426 833Q440 821 450 816T475 810Q492 810 506 822T527 857H568Q555 813 528 789T465
764Q445 764 432 771T402 791Q389 802 380 807T357 813Q321 813 305 765H265Q280 811 306 835T367 859Q386 859 398 853Z" />
<glyph unicode="&#xc4;" glyph-name="Adieresis" horiz-adv-x="644" d="M457 172H137L43 0H-33L349 689H428L566 0H490L457 172ZM447 228L375 608L167 228H447ZM297 847T311 859T345 872Q364 872 374 860T382 828Q378 810 363 797T330 784Q314 784 304 794T293
819Q293 825 294 828Q297 847 311 859ZM454 847T468 859T502 872Q520 872 530 860T538 828Q534 810 520 797T487 784Q471 784 461 794T450 819Q450 825 451 828Q454 847 468 859Z" />
<glyph unicode="&#xc5;" glyph-name="Aring" horiz-adv-x="644" d="M705 172H385L291 0H215L597 689H676L814 0H738L705 172ZM695 228L623 608L415 228H695ZM463 970T486 949T510 890Q510 854 493 827T448 784T389 769Q352 769 329 790T305 848Q305 884 322 912T366
955T425 970Q463 970 486 949ZM387 935T365 913T342 855Q342 831 356 817T395 803Q427 803 449 825T472 883Q472 907 458 921T419 935Q387 935 365 913Z" />
<glyph unicode="&#xc6;" glyph-name="AE" horiz-adv-x="874" d="M577 648L531 383H804L794 327H521L473 58H776L766 0H393L423 170H152L23 0H-55L479 705H890L880 648H577ZM505 635L194 225H433L505 635Z" />
<glyph unicode="&#xc7;" glyph-name="Ccedilla" horiz-adv-x="765" d="M586 712T658 651T745 481H671Q657 557 600 602T447 647Q374 647 308 611T197 508T135 352Q129 316 129 284Q129 179 187 119T343 58Q439 58 512 103T626 224H700Q647 116 554 55T333 -7Q248
-7 186 28T90 126T56 274Q56 314 63 352Q81 457 137 539T278 666T459 712Q586 712 658 651ZM417 -71T448 -90T479 -150Q479 -204 442 -231T345 -258H253L261 -215H344Q427 -215 427 -156Q427 -136 411 -124T362 -112H313L334 7H381L366 -74Q417 -71 448 -90Z" />
<glyph unicode="&#xc8;" glyph-name="Egrave" horiz-adv-x="498" d="M453 648L406 382H682L671 327H396L349 58H654L644 0H268L392 705H768L758 648H453ZM372 801L362 749L179 870L190 929L372 801Z" />
<glyph unicode="&#xc9;" glyph-name="Eacute" horiz-adv-x="498" d="M453 648L406 382H682L671 327H396L349 58H654L644 0H268L392 705H768L758 648H453ZM526 870L299 749L309 801L537 929L526 870Z" />
<glyph unicode="&#xca;" glyph-name="Ecircumflex" horiz-adv-x="498" d="M199 648L152 382H428L417 327H142L95 58H400L390 0H14L138 705H514L504 648H199ZM356 855L207 772L216 823L365 905L484 823L475 772L356 855Z" />
<glyph unicode="&#xcb;" glyph-name="Edieresis" horiz-adv-x="498" d="M202 648L155 382H431L420 327H145L98 58H403L393 0H17L141 705H517L507 648H202ZM237 847T251 859T285 872Q304 872 314 860T322 828Q318 810 303 797T270 784Q254 784 244 794T233 819Q233
825 234 828Q237 847 251 859ZM394 847T408 859T442 872Q460 872 470 860T478 828Q474 810 460 797T427 784Q411 784 401 794T390 819Q390 825 391 828Q394 847 408 859Z" />
<glyph unicode="&#xcc;" glyph-name="Igrave" horiz-adv-x="223" d="M209 705L85 0H14L138 705H209ZM221 801L211 749L28 870L39 929L221 801Z" />
<glyph unicode="&#xcd;" glyph-name="Iacute" horiz-adv-x="223" d="M209 705L85 0H14L138 705H209ZM376 870L149 749L159 801L387 929L376 870Z" />
<glyph unicode="&#xce;" glyph-name="Icircumflex" horiz-adv-x="223" d="M212 705L88 0H17L141 705H212ZM206 855L57 772L66 823L215 905L334 823L325 772L206 855Z" />
<glyph unicode="&#xcf;" glyph-name="Idieresis" horiz-adv-x="223" d="M214 705L90 0H19L143 705H214ZM87 847T101 859T135 872Q154 872 164 860T172 828Q168 810 153 797T120 784Q104 784 94 794T83 819Q83 825 84 828Q87 847 101 859ZM244 847T258 859T292
872Q310 872 320 860T328 828Q324 810 310 797T277 784Q261 784 251 794T240 819Q240 825 241 828Q244 847 258 859Z" />
<glyph unicode="&#xd0;" glyph-name="Eth" horiz-adv-x="742" d="M535 705T616 634T697 435Q697 394 690 353Q671 244 614 165T466 43T257 0H44L101 324H2L13 382H111L168 705H381Q535 705 616 634ZM625 389T625 422Q625 528 560 585T365 643H228L182 382H390L379
324H172L126 63H263Q412 63 503 139T619 353Q625 389 625 422Z" />
<glyph unicode="&#xd1;" glyph-name="Ntilde" horiz-adv-x="680" d="M546 0H475L193 589L89 0H18L142 704H213L496 114L599 704H670L546 0ZM401 859T413 853T441 833Q455 821 465 816T490 810Q507 810 521 822T542 857H583Q570 813 543 789T480 764Q460 764 447
771T417 791Q404 802 395 807T372 813Q336 813 320 765H280Q295 811 321 835T382 859Q401 859 413 853Z" />
<glyph unicode="&#xd2;" glyph-name="Ograve" horiz-adv-x="787" d="M794 713T859 677T960 575T996 422Q996 381 989 343Q971 241 915 161T775 37T593 -8Q503 -8 437 28T336 130T301 283Q301 324 308 363Q326 465 382 544T522 668T705 713Q794 713 859 677ZM622
648T555 613T441 511T378 355Q372 319 372 288Q372 181 434 120T599 58Q676 58 743 93T857 195T920 350Q926 386 926 417Q926 524 864 586T698 648Q622 648 555 613ZM504 801L494 749L311 870L322 929L504 801Z" />
<glyph unicode="&#xd3;" glyph-name="Oacute" horiz-adv-x="787" d="M792 713T857 677T958 575T994 422Q994 381 987 343Q969 241 913 161T773 37T591 -8Q501 -8 435 28T334 130T299 283Q299 324 306 363Q324 465 380 544T520 668T703 713Q792 713 857 677ZM620
648T553 613T439 511T376 355Q370 319 370 288Q370 181 432 120T597 58Q674 58 741 93T855 195T918 350Q924 386 924 417Q924 524 862 586T696 648Q620 648 553 613ZM656 870L429 749L439 801L667 929L656 870Z" />
<glyph unicode="&#xd4;" glyph-name="Ocircumflex" horiz-adv-x="787" d="M794 713T859 677T960 575T996 422Q996 381 989 343Q971 241 915 161T775 37T593 -8Q503 -8 437 28T336 130T301 283Q301 324 308 363Q326 465 382 544T522 668T705 713Q794 713 859 677ZM622
648T555 613T441 511T378 355Q372 319 372 288Q372 181 434 120T599 58Q676 58 743 93T857 195T920 350Q926 386 926 417Q926 524 864 586T698 648Q622 648 555 613ZM486 855L337 772L346 823L495 905L614 823L605 772L486 855Z" />
<glyph unicode="&#xd5;" glyph-name="Otilde" horiz-adv-x="787" d="M542 713T607 677T708 575T744 422Q744 381 737 343Q719 241 663 161T523 37T341 -8Q251 -8 185 28T84 130T49 283Q49 324 56 363Q74 465 130 544T270 668T453 713Q542 713 607 677ZM370 648T303
613T189 511T126 355Q120 319 120 288Q120 181 182 120T347 58Q424 58 491 93T605 195T668 350Q674 386 674 417Q674 524 612 586T446 648Q370 648 303 613ZM456 859T468 853T496 833Q510 821 520 816T545 810Q562 810 576 822T597 857H638Q625 813 598 789T535
764Q515 764 502 771T472 791Q459 802 450 807T427 813Q391 813 375 765H335Q350 811 376 835T437 859Q456 859 468 853Z" />
<glyph unicode="&#xd6;" glyph-name="Odieresis" horiz-adv-x="787" d="M541 713T606 677T707 575T743 422Q743 381 736 343Q718 241 662 161T522 37T340 -8Q250 -8 184 28T83 130T48 283Q48 324 55 363Q73 465 129 544T269 668T452 713Q541 713 606 677ZM369
648T302 613T188 511T125 355Q119 319 119 288Q119 181 181 120T346 58Q423 58 490 93T604 195T667 350Q673 386 673 417Q673 524 611 586T445 648Q369 648 302 613ZM367 847T381 859T415 872Q434 872 444 860T452 828Q448 810 433 797T400 784Q384 784 374 794T363
819Q363 825 364 828Q367 847 381 859ZM524 847T538 859T572 872Q590 872 600 860T608 828Q604 810 590 797T557 784Q541 784 531 794T520 819Q520 825 521 828Q524 847 538 859Z" />
<glyph unicode="&#xd7;" glyph-name="multiply" horiz-adv-x="497" d="M297 372L435 205L380 158L242 326L47 159L9 205L204 371L68 537L123 584L259 418L453 583L491 538L297 372Z" />
<glyph unicode="&#xd8;" glyph-name="Oslash" horiz-adv-x="791" d="M689 601Q741 529 741 422Q741 381 734 343Q716 241 660 161T520 37T338 -8Q269 -8 214 14T119 77L36 0H-12L99 102Q46 175 46 283Q46 324 53 363Q71 465 127 544T267 668T450 713Q519 713 575
691T669 626L756 706H803L689 601ZM117 319T117 288Q117 208 153 152L617 578Q586 612 542 630T443 648Q367 648 300 613T186 511T123 355Q117 319 117 288ZM671 385T671 416Q671 495 636 552L173 126Q203 93 246 76T344 58Q421 58 488 93T602 195T665 350Q671
385 671 416Z" />
<glyph unicode="&#xd9;" glyph-name="Ugrave" horiz-adv-x="652" d="M460 705L385 278Q378 243 378 209Q378 132 418 96T531 59Q616 59 674 112T753 278L828 705H898L823 278Q797 135 716 64T518 -7Q419 -7 363 44T307 199Q307 237 314 278L390 705H460ZM433 801L423
749L240 870L251 929L433 801Z" />
<glyph unicode="&#xda;" glyph-name="Uacute" horiz-adv-x="652" d="M460 705L385 278Q378 243 378 209Q378 132 418 96T531 59Q616 59 674 112T753 278L828 705H898L823 278Q797 135 716 64T518 -7Q419 -7 363 44T307 199Q307 237 314 278L390 705H460ZM588 870L361
749L371 801L599 929L588 870Z" />
<glyph unicode="&#xdb;" glyph-name="Ucircumflex" horiz-adv-x="652" d="M206 705L131 278Q124 243 124 209Q124 132 164 96T277 59Q362 59 420 112T499 278L574 705H644L569 278Q543 135 462 64T264 -7Q165 -7 109 44T53 199Q53 237 60 278L136 705H206ZM418
855L269 772L278 823L427 905L546 823L537 772L418 855Z" />
<glyph unicode="&#xdc;" glyph-name="Udieresis" horiz-adv-x="652" d="M209 705L134 278Q127 243 127 209Q127 132 167 96T280 59Q365 59 423 112T502 278L577 705H647L572 278Q546 135 465 64T267 -7Q168 -7 112 44T56 199Q56 237 63 278L139 705H209ZM299 847T313
859T347 872Q366 872 376 860T384 828Q380 810 365 797T332 784Q316 784 306 794T295 819Q295 825 296 828Q299 847 313 859ZM456 847T470 859T504 872Q522 872 532 860T540 828Q536 810 522 797T489 784Q473 784 463 794T452 819Q452 825 453 828Q456 847 470
859Z" />
<glyph unicode="&#xdd;" glyph-name="Yacute" horiz-adv-x="571" d="M865 705L562 275L514 0H443L491 275L339 705H420L539 349L784 705H865ZM548 870L321 749L331 801L559 929L548 870Z" />
<glyph unicode="&#xde;" glyph-name="Thorn" horiz-adv-x="558" d="M111 151L85 0H14L138 705H208L182 557H323Q427 557 477 516T528 400Q528 381 523 353Q506 256 437 204T252 151H111ZM347 208T393 245T452 353Q456 379 456 391Q456 500 307 500H173L122 208H256Q347
208 393 245Z" />
<glyph unicode="&#xdf;" glyph-name="germandbls" horiz-adv-x="632" d="M519 325T544 285T569 194Q569 170 565 150Q552 79 496 34T357 -11Q280 -11 236 29T191 141Q191 158 194 176H254Q252 156 252 148Q252 104 278 78T357 51Q416 51 452 84T497 162Q499 172
499 190Q499 222 482 250T426 309L285 414L291 445L331 464Q369 481 390 506T418 569Q420 585 420 593Q420 635 394 660T321 685Q265 685 228 652T180 560L82 0H11L111 562Q127 652 185 701T337 750Q410 750 453 714T497 617Q497 602 494 587Q477 496 367 449L353
443L466 362Q519 325 544 285Z" />
<glyph unicode="&#xe0;" glyph-name="agrave" horiz-adv-x="674" d="M439 553T490 510T551 396L578 546H647L550 0H481L508 150Q474 79 408 36T258 -7Q160 -7 103 50T46 209Q46 242 52 278Q67 362 110 424T216 520T354 553Q439 553 490 510ZM272 491T207 433T123
273Q118 241 118 220Q118 142 163 99T287 55Q345 55 396 82T483 158T529 273Q534 301 534 323Q534 401 488 446T365 491Q272 491 207 433ZM406 642L396 590L213 711L224 770L406 642Z" />
<glyph unicode="&#xe1;" glyph-name="aacute" horiz-adv-x="674" d="M439 553T490 510T551 396L578 546H647L550 0H481L508 150Q474 79 408 36T258 -7Q160 -7 103 50T46 209Q46 242 52 278Q67 362 110 424T216 520T354 553Q439 553 490 510ZM272 491T207 433T123
273Q118 241 118 220Q118 142 163 99T287 55Q345 55 396 82T483 158T529 273Q534 301 534 323Q534 401 488 446T365 491Q272 491 207 433ZM560 711L333 590L343 642L571 770L560 711Z" />
<glyph unicode="&#xe2;" glyph-name="acircumflex" horiz-adv-x="674" d="M692 553T743 510T804 396L831 546H900L803 0H734L761 150Q727 79 661 36T511 -7Q413 -7 356 50T299 209Q299 242 305 278Q320 362 363 424T469 520T607 553Q692 553 743 510ZM525 491T460
433T376 273Q371 241 371 220Q371 142 416 99T540 55Q598 55 649 82T736 158T782 273Q787 301 787 323Q787 401 741 446T618 491Q525 491 460 433ZM386 696L237 613L246 664L395 746L514 664L505 613L386 696Z" />
<glyph unicode="&#xe3;" glyph-name="atilde" horiz-adv-x="674" d="M445 553T496 510T557 396L584 546H653L556 0H487L514 150Q480 79 414 36T264 -7Q166 -7 109 50T52 209Q52 242 58 278Q73 362 116 424T222 520T360 553Q445 553 496 510ZM278 491T213 433T129
273Q124 241 124 220Q124 142 169 99T293 55Q351 55 402 82T489 158T535 273Q540 301 540 323Q540 401 494 446T371 491Q278 491 213 433ZM360 700T372 694T400 674Q414 662 424 657T449 651Q466 651 480 663T501 698H542Q529 654 502 630T439 605Q419 605 406
612T376 632Q363 643 354 648T331 654Q295 654 279 606H239Q254 652 280 676T341 700Q360 700 372 694Z" />
<glyph unicode="&#xe4;" glyph-name="adieresis" horiz-adv-x="674" d="M444 553T495 510T556 396L583 546H652L555 0H486L513 150Q479 79 413 36T263 -7Q165 -7 108 50T51 209Q51 242 57 278Q72 362 115 424T221 520T359 553Q444 553 495 510ZM277 491T212 433T128
273Q123 241 123 220Q123 142 168 99T292 55Q350 55 401 82T488 158T534 273Q539 301 539 323Q539 401 493 446T370 491Q277 491 212 433ZM271 688T285 700T319 713Q338 713 348 701T356 669Q352 651 337 638T304 625Q288 625 278 635T267 660Q267 666 268 669Q271
688 285 700ZM428 688T442 700T476 713Q494 713 504 701T512 669Q508 651 494 638T461 625Q445 625 435 635T424 660Q424 666 425 669Q428 688 442 700Z" />
<glyph unicode="&#xe5;" glyph-name="aring" horiz-adv-x="674" d="M686 553T737 510T798 396L825 546H894L797 0H728L755 150Q721 79 655 36T505 -7Q407 -7 350 50T293 209Q293 242 299 278Q314 362 357 424T463 520T601 553Q686 553 737 510ZM519 491T454 433T370
273Q365 241 365 220Q365 142 410 99T534 55Q592 55 643 82T730 158T776 273Q781 301 781 323Q781 401 735 446T612 491Q519 491 454 433ZM432 811T455 790T479 731Q479 695 462 668T417 625T358 610Q321 610 298 631T274 689Q274 725 291 753T335 796T394 811Q432
811 455 790ZM356 776T334 754T311 696Q311 672 325 658T364 644Q396 644 418 666T441 724Q441 748 427 762T388 776Q356 776 334 754Z" />
<glyph unicode="&#xe6;" glyph-name="ae" horiz-adv-x="1116" d="M968 553T1021 498T1075 357Q1075 329 1071 308Q1066 279 1057 257H596Q593 235 593 214Q593 133 640 92T760 50Q835 50 893 87T973 188H1047Q1016 101 942 47T770 -7Q689 -7 636 34T575 151L549
0H479L506 150Q472 79 406 36T256 -7Q159 -7 102 50T44 208Q44 239 50 273Q65 359 109 422T216 519T355 553Q439 553 489 510T549 396L576 546H646L619 396Q653 472 718 512T869 553Q968 553 1021 498ZM1006 321T1006 348Q1006 420 959 458T841 496Q754 496 689
446T603 293H999Q1006 321 1006 348ZM532 296T532 321Q532 399 486 445T363 491Q270 491 205 433T121 273Q116 243 116 221Q116 143 161 99T285 55Q344 55 395 82T481 158T528 273Q532 296 532 321Z" />
<glyph unicode="&#xe7;" glyph-name="ccedilla" horiz-adv-x="624" d="M474 553T533 498T592 352H518Q518 417 475 454T359 492Q306 492 258 468T175 395T126 273Q121 248 121 218Q121 137 166 96T282 54Q355 54 411 91T490 194H564Q532 103 454 48T272 -7Q170
-7 110 51T49 212Q49 244 55 278Q70 363 114 425T225 520T369 553Q474 553 533 498ZM335 -71T366 -90T397 -150Q397 -204 360 -231T263 -258H171L179 -215H262Q345 -215 345 -156Q345 -136 329 -124T280 -112H231L252 7H299L284 -74Q335 -71 366 -90Z" />
<glyph unicode="&#xe8;" glyph-name="egrave" horiz-adv-x="625" d="M691 553T740 527T814 455T839 354Q839 329 835 308Q830 279 821 257H370Q366 225 366 212Q366 132 412 92T529 51Q602 51 658 88T737 188H811Q780 101 703 47T521 -7Q419 -7 359 51T298 211Q298
242 304 276Q319 361 364 424T476 520T620 553Q691 553 740 527ZM770 322T770 350Q770 422 725 459T610 496Q528 496 463 445T377 293H763Q770 322 770 350ZM392 642L382 590L199 711L210 770L392 642Z" />
<glyph unicode="&#xe9;" glyph-name="eacute" horiz-adv-x="625" d="M691 553T740 527T814 455T839 354Q839 329 835 308Q830 279 821 257H370Q366 225 366 212Q366 132 412 92T529 51Q602 51 658 88T737 188H811Q780 101 703 47T521 -7Q419 -7 359 51T298 211Q298
242 304 276Q319 361 364 424T476 520T620 553Q691 553 740 527ZM770 322T770 350Q770 422 725 459T610 496Q528 496 463 445T377 293H763Q770 322 770 350ZM547 711L320 590L330 642L558 770L547 711Z" />
<glyph unicode="&#xea;" glyph-name="ecircumflex" horiz-adv-x="625" d="M438 553T487 527T561 455T586 354Q586 329 582 308Q577 279 568 257H117Q113 225 113 212Q113 132 159 92T276 51Q349 51 405 88T484 188H558Q527 101 450 47T268 -7Q166 -7 106 51T45
211Q45 242 51 276Q66 361 111 424T223 520T367 553Q438 553 487 527ZM517 322T517 350Q517 422 472 459T357 496Q275 496 210 445T124 293H510Q517 322 517 350ZM377 696L228 613L237 664L386 746L505 664L496 613L377 696Z" />
<glyph unicode="&#xeb;" glyph-name="edieresis" horiz-adv-x="625" d="M440 553T489 527T563 455T588 354Q588 329 584 308Q579 279 570 257H119Q115 225 115 212Q115 132 161 92T278 51Q351 51 407 88T486 188H560Q529 101 452 47T270 -7Q168 -7 108 51T47 211Q47
242 53 276Q68 361 113 424T225 520T369 553Q440 553 489 527ZM519 322T519 350Q519 422 474 459T359 496Q277 496 212 445T126 293H512Q519 322 519 350ZM258 688T272 700T306 713Q325 713 335 701T343 669Q339 651 324 638T291 625Q275 625 265 635T254 660Q254
666 255 669Q258 688 272 700ZM415 688T429 700T463 713Q481 713 491 701T499 669Q495 651 481 638T448 625Q432 625 422 635T411 660Q411 666 412 669Q415 688 429 700Z" />
<glyph unicode="&#xec;" glyph-name="igrave" horiz-adv-x="223" d="M194 546L97 0H27L124 546H194ZM455 642L445 590L262 711L273 770L455 642Z" />
<glyph unicode="&#xed;" glyph-name="iacute" horiz-adv-x="223" d="M194 546L97 0H27L124 546H194ZM354 711L127 590L137 642L365 770L354 711Z" />
<glyph unicode="&#xee;" glyph-name="icircumflex" horiz-adv-x="223" d="M196 546L99 0H29L126 546H196ZM435 696L286 613L295 664L444 746L563 664L554 613L435 696Z" />
<glyph unicode="&#xef;" glyph-name="idieresis" horiz-adv-x="223" d="M199 546L102 0H32L129 546H199ZM321 688T335 700T369 713Q388 713 398 701T406 669Q402 651 387 638T354 625Q338 625 328 635T317 660Q317 666 318 669Q321 688 335 700ZM478 688T492 700T526
713Q544 713 554 701T562 669Q558 651 544 638T511 625Q495 625 485 635T474 660Q474 666 475 669Q478 688 492 700Z" />
<glyph unicode="&#xf0;" glyph-name="eth" horiz-adv-x="642" d="M613 708L500 671Q596 550 596 403Q596 358 587 310Q569 207 522 136T408 29T261 -7Q154 -7 93 54T32 220Q32 252 38 286Q52 367 96 428T208 522T354 556Q425 556 473 518T532 403Q531 477 512
537T450 655L300 606L305 638L431 679Q410 704 372 740H437Q458 720 480 695L618 740L613 708ZM514 305T514 326Q514 406 468 450T348 495Q260 495 194 440T110 285Q104 254 104 227Q104 145 150 100T272 55Q328 55 377 80T462 155T509 273Q514 305 514 326Z" />
<glyph unicode="&#xf1;" glyph-name="ntilde" horiz-adv-x="635" d="M484 556T532 511T581 379Q581 351 575 318L518 0H449L504 313Q509 341 509 362Q509 428 472 462T368 497Q286 497 229 445T153 290L102 0H31L128 546H198L174 412Q207 482 269 519T402 556Q484
556 532 511ZM352 700T364 694T392 674Q406 662 416 657T441 651Q458 651 472 663T493 698H534Q521 654 494 630T431 605Q411 605 398 612T368 632Q355 643 346 648T323 654Q287 654 271 606H231Q246 652 272 676T333 700Q352 700 364 694Z" />
<glyph unicode="&#xf2;" glyph-name="ograve" horiz-adv-x="645" d="M476 553T539 494T602 331Q602 301 596 268Q581 184 535 122T422 26T277 -7Q172 -7 109 52T45 216Q45 245 51 278Q66 362 112 424T227 520T372 553Q476 553 539 494ZM309 492T259 468T173 395T123
273Q118 241 118 220Q118 139 165 97T285 55Q339 55 388 79T474 152T524 273Q529 305 529 326Q529 407 482 449T363 492Q309 492 259 468ZM404 642L394 590L211 711L222 770L404 642Z" />
<glyph unicode="&#xf3;" glyph-name="oacute" horiz-adv-x="645" d="M476 553T539 494T602 331Q602 301 596 268Q581 184 535 122T422 26T277 -7Q172 -7 109 52T45 216Q45 245 51 278Q66 362 112 424T227 520T372 553Q476 553 539 494ZM309 492T259 468T173 395T123
273Q118 241 118 220Q118 139 165 97T285 55Q339 55 388 79T474 152T524 273Q529 305 529 326Q529 407 482 449T363 492Q309 492 259 468ZM559 711L332 590L342 642L570 770L559 711Z" />
<glyph unicode="&#xf4;" glyph-name="ocircumflex" horiz-adv-x="645" d="M476 553T539 494T602 331Q602 301 596 268Q581 184 535 122T422 26T277 -7Q172 -7 109 52T45 216Q45 245 51 278Q66 362 112 424T227 520T372 553Q476 553 539 494ZM309 492T259 468T173
395T123 273Q118 241 118 220Q118 139 165 97T285 55Q339 55 388 79T474 152T524 273Q529 305 529 326Q529 407 482 449T363 492Q309 492 259 468ZM386 696L237 613L246 664L395 746L514 664L505 613L386 696Z" />
<glyph unicode="&#xf5;" glyph-name="otilde" horiz-adv-x="645" d="M482 553T545 494T608 331Q608 301 602 268Q587 184 541 122T428 26T283 -7Q178 -7 115 52T51 216Q51 245 57 278Q72 362 118 424T233 520T378 553Q482 553 545 494ZM315 492T265 468T179 395T129
273Q124 241 124 220Q124 139 171 97T291 55Q345 55 394 79T480 152T530 273Q535 305 535 326Q535 407 488 449T369 492Q315 492 265 468ZM358 700T370 694T398 674Q412 662 422 657T447 651Q464 651 478 663T499 698H540Q527 654 500 630T437 605Q417 605 404
612T374 632Q361 643 352 648T329 654Q293 654 277 606H237Q252 652 278 676T339 700Q358 700 370 694Z" />
<glyph unicode="&#xf6;" glyph-name="odieresis" horiz-adv-x="645" d="M481 553T544 494T607 331Q607 301 601 268Q586 184 540 122T427 26T282 -7Q177 -7 114 52T50 216Q50 245 56 278Q71 362 117 424T232 520T377 553Q481 553 544 494ZM314 492T264 468T178
395T128 273Q123 241 123 220Q123 139 170 97T290 55Q344 55 393 79T479 152T529 273Q534 305 534 326Q534 407 487 449T368 492Q314 492 264 468ZM269 688T283 700T317 713Q336 713 346 701T354 669Q350 651 335 638T302 625Q286 625 276 635T265 660Q265 666
266 669Q269 688 283 700ZM426 688T440 700T474 713Q492 713 502 701T510 669Q506 651 492 638T459 625Q443 625 433 635T422 660Q422 666 423 669Q426 688 440 700Z" />
<glyph unicode="&#xf7;" glyph-name="divide" horiz-adv-x="580" d="M383 634L367 544H274L290 634H383ZM550 402L539 338H29L40 402H550ZM306 199L290 109H197L213 199H306Z" />
<glyph unicode="&#xf8;" glyph-name="oslash" horiz-adv-x="641" d="M553 470Q595 414 595 331Q595 301 589 268Q574 184 528 122T415 26T270 -7Q163 -7 100 54L41 0H-2L81 76Q38 133 38 215Q38 245 44 278Q59 362 105 424T220 520T365 553Q418 553 461 538T534
492L593 546H635L553 470ZM111 241T111 219Q111 164 135 126L481 443Q458 467 426 479T356 492Q302 492 252 468T166 395T116 273Q111 241 111 219ZM522 305T522 326Q522 382 498 420L153 103Q198 55 278 55Q332 55 381 79T467 152T517 273Q522 305 522 326Z" />
<glyph unicode="&#xf9;" glyph-name="ugrave" horiz-adv-x="624" d="M595 546L498 0H428L452 136Q419 65 358 28T224 -10Q143 -10 95 35T46 166Q46 195 52 228L108 546H178L122 234Q118 211 118 186Q118 119 155 84T258 49Q340 49 397 101T473 256V253L525 546H595ZM386
642L376 590L193 711L204 770L386 642Z" />
<glyph unicode="&#xfa;" glyph-name="uacute" horiz-adv-x="624" d="M595 546L498 0H428L452 136Q419 65 358 28T224 -10Q143 -10 95 35T46 166Q46 195 52 228L108 546H178L122 234Q118 211 118 186Q118 119 155 84T258 49Q340 49 397 101T473 256V253L525 546H595ZM540
711L313 590L323 642L551 770L540 711Z" />
<glyph unicode="&#xfb;" glyph-name="ucircumflex" horiz-adv-x="624" d="M597 546L500 0H430L454 136Q421 65 360 28T226 -10Q145 -10 97 35T48 166Q48 195 54 228L110 546H180L124 234Q120 211 120 186Q120 119 157 84T260 49Q342 49 399 101T475 256V253L527
546H597ZM370 696L221 613L230 664L379 746L498 664L489 613L370 696Z" />
<glyph unicode="&#xfc;" glyph-name="udieresis" horiz-adv-x="624" d="M600 546L503 0H433L457 136Q424 65 363 28T229 -10Q148 -10 100 35T51 166Q51 195 57 228L113 546H183L127 234Q123 211 123 186Q123 119 160 84T263 49Q345 49 402 101T478 256V253L530
546H600ZM251 688T265 700T299 713Q318 713 328 701T336 669Q332 651 317 638T284 625Q268 625 258 635T247 660Q247 666 248 669Q251 688 265 700ZM408 688T422 700T456 713Q474 713 484 701T492 669Q488 651 474 638T441 625Q425 625 415 635T404 660Q404 666
405 669Q408 688 422 700Z" />
<glyph unicode="&#xfd;" glyph-name="yacute" horiz-adv-x="547" d="M363 546L473 91L729 546H807L343 -258H264L421 6L285 546H363ZM499 711L272 590L282 642L510 770L499 711Z" />
<glyph unicode="&#xfe;" glyph-name="thorn" horiz-adv-x="673" d="M516 552T574 494T633 335Q633 305 627 272Q612 186 568 123T461 27T323 -7Q240 -7 189 34T127 146L55 -258H-15L162 740H232L172 403Q207 472 271 512T417 552Q516 552 574 494ZM406 55T471
112T555 272Q560 304 560 324Q560 403 515 447T391 491Q334 491 283 465T197 389T149 273Q145 250 145 224Q145 146 191 101T314 55Q406 55 471 112Z" />
<glyph unicode="&#xff;" glyph-name="ydieresis" horiz-adv-x="547" d="M383 546L493 91L749 546H827L363 -258H284L441 6L305 546H383ZM213 688T227 700T261 713Q280 713 290 701T298 669Q294 651 279 638T246 625Q230 625 220 635T209 660Q209 666 210 669Q213
688 227 700ZM370 688T384 700T418 713Q436 713 446 701T454 669Q450 651 436 638T403 625Q387 625 377 635T366 660Q366 666 367 669Q370 688 384 700Z" />
<glyph unicode="&#x2013;" glyph-name="endash" horiz-adv-x="607" d="M568 400L557 341H38L49 400H568Z" />
<glyph unicode="&#x2014;" glyph-name="emdash" horiz-adv-x="807" d="M769 400L758 341H38L49 400H769Z" />
<glyph unicode="&#x2018;" glyph-name="quoteleft" horiz-adv-x="162" d="M27 634T33 672Q52 774 143 774L137 740Q112 740 99 727T80 687L76 663H122L109 586H28Q27 634 33 672Z" />
<glyph unicode="&#x2019;" glyph-name="quoteright" horiz-adv-x="162" d="M135 727T129 689Q110 586 19 586L26 621Q51 621 64 634T82 673L87 698H40L53 774H134Q135 727 129 689Z" />
<glyph unicode="&#x201a;" glyph-name="quotesinglbase" horiz-adv-x="173" d="M363 47T363 31Q363 -35 334 -76T249 -117L255 -84Q280 -84 293 -71T311 -29L313 -21H268L281 56H362Q363 47 363 31Z" />
<glyph unicode="&#x201c;" glyph-name="quotedblleft" horiz-adv-x="283" d="M27 634T33 672Q52 774 143 774L137 740Q112 740 99 727T80 687L76 663H122L109 586H28Q27 634 33 672ZM148 634T154 672Q173 774 264 774L257 740Q232 740 219 727T200 687L196 663H243L230
586H149Q148 634 154 672Z" />
<glyph unicode="&#x201d;" glyph-name="quotedblright" horiz-adv-x="283" d="M135 727T129 689Q110 586 19 586L26 621Q51 621 64 634T82 673L87 698H40L53 774H134Q135 727 129 689ZM256 733T249 689Q232 586 140 586L146 621Q171 621 184 633T203 673L207 698H161L174
774H255Q256 733 249 689Z" />
<glyph unicode="&#x201e;" glyph-name="quotedblbase" horiz-adv-x="283" d="M110 29T104 -9Q85 -112 -6 -112L1 -77Q26 -77 39 -64T57 -25L62 0H15L28 76H109Q110 29 104 -9ZM231 35T224 -9Q207 -112 115 -112L121 -77Q146 -77 159 -65T178 -25L182 0H136L149
76H230Q231 35 224 -9Z" />
<glyph unicode="&#x2022;" glyph-name="bullet" horiz-adv-x="326" d="M46 348T65 380T116 431T183 450Q226 450 253 423T281 353Q281 317 262 287T211 238T143 219Q100 219 73 245T46 312Q46 348 65 380Z" />
<glyph unicode="&#x2039;" glyph-name="guilsinglleft" horiz-adv-x="265" d="M114 120L45 295L176 470H246L114 295L184 120H114Z" />
<glyph unicode="&#x203a;" glyph-name="guilsinglright" horiz-adv-x="265" d="M153 295L81 470H153L220 295L91 120H19L153 295Z" />
</font>
</defs>
</svg>
